<?xml version="1.0" standalone="no"?>
<!DOCTYPE svg PUBLIC "-//W3C//DTD SVG 1.1//EN" "http://www.w3.org/Graphics/SVG/1.1/DTD/svg11.dtd" >
<svg xmlns="http://www.w3.org/2000/svg">
<metadata>Generated by IcoMoon</metadata>
<defs>
<font id="icomoon" horiz-adv-x="1024">
<font-face units-per-em="1024" ascent="960" descent="-64" />
<missing-glyph horiz-adv-x="1024" />
<glyph unicode="&#x20;" horiz-adv-x="512" d="" />
<glyph unicode="&#xe900;" glyph-name="pictos_site_OIP-copie_contact" d="M1026.738 14.117c0-35.594-30.117-65.711-65.711-65.711h-892.578c-32.856 0-65.711 30.117-65.711 65.711v574.974c0 32.856 27.38 62.973 62.973 62.973v2.739h892.578v-2.739h2.739c35.594 0 65.711-27.38 65.711-62.973v-574.974zM947.337 107.208v391.529l-257.37-197.134 257.37-194.395zM947.337 575.401h-862.46c145.112-106.781 287.487-216.3 432.599-325.818 142.375 109.519 284.748 219.037 429.862 325.818zM947.337 30.545l-312.129 232.728-82.139-62.973h-79.401l-82.139 62.973-309.39-232.728h865.199zM339.508 301.604l-257.37 197.134v-391.529l257.37 194.395z" />
<glyph unicode="&#xe901;" glyph-name="pictos_site_OIP_abonner" d="M625.649-77.516v233.725c-27.759 0-533.934 34.271-626.805-289.243 0 532.562 398.908 644.97 626.464 644.97v232.353l397.536-411.245z" />
<glyph unicode="&#xe902;" glyph-name="pictos_site_OIP_citation1" d="M376.626 301.347v-412.187h-381.071v325.305q0 264.284 63.040 382.686c58.17 107.141 148.93 190.331 258.808 237.507l90.339-136.885c-68.702-26.171-124.482-73.335-160.845-133.546-37.061-74.789-58.274-161.16-58.274-252.483 0-3.656 0.033-7.302 0.102-10.942zM988.439 301.347v-412.187h-381.071v325.305q0 264.284 63.040 382.686c58.17 107.141 148.93 190.331 258.808 237.507l90.339-136.885c-68.702-26.171-124.482-73.335-160.845-133.546-37.061-74.763-58.276-161.1-58.276-252.396 0-3.687 0.036-7.366 0.104-11.036z" />
<glyph unicode="&#xe903;" glyph-name="pictos_site_OIP_citation2" d="M644.194 349.568v412.35h380.817v-325.836q0-264.389-63.065-382.838c-58.193-107.183-148.989-190.406-258.91-237.601l-90.374 136.939c68.729 26.182 124.532 73.365 160.908 133.599 37.075 74.819 58.297 161.223 58.297 252.583 0 3.657-0.033 7.305-0.102 10.946zM32.139 349.568v412.35h380.817v-325.836q0-265.197-62.66-382.435c-58.193-107.183-148.989-190.406-258.91-237.601l-90.374 136.939c68.729 26.182 124.532 73.365 160.908 133.599 37.075 74.793 58.299 161.164 58.299 252.495 0 3.688-0.036 7.369-0.104 11.041z" />
<glyph unicode="&#xe904;" glyph-name="pictos_site_OIP_contact" d="M957.44 619.992l-3.772 4.851h-877.944l-7.546-4.851c-35.6-1.205-64.467-28.489-68.15-63.287l-0.027-564.047c0-34.762 43.116-68.446 76.8-68.446h877.944c36.868 2.626 66.189 31.667 69.237 68.174l0.019 564.010c-1.768 35.425-30.87 63.491-66.549 63.595zM80.842 468.547l252.766-194.021-252.766-191.866zM90.543 5.054l305.044 225.819 80.842-64.135h77.608l80.842 65.212 305.853-226.896zM943.158 82.662l-254.114 191.866 254.114 194.021zM515.234 224.136c-141.474 107.25-282.947 212.076-424.691 319.864h850.188c-142.552-107.79-284.025-212.615-425.499-319.864z" />
<glyph unicode="&#xe905;" glyph-name="pictos_site_OIP_contacter" d="M1029.32 603.355v83.89h-1024v-93.008l508.504-320.362 515.496 329.48zM514.128 131.628l-508.809 320.664v-587.834h1024v596.345l-515.191-329.175z" />
<glyph unicode="&#xe906;" glyph-name="pictos_site_OIP_DISP" d="M109.978-299.913h121.090v965.876h-121.090zM587.504 545.442c-258.992 0-296.032 121.661-296.032 121.661v-544.481s77.783-62.397 233.634-62.397 214.259 140.75 427.379 60.402v523.112c-212.549 80.347-209.13-98.297-364.982-98.297z" />
<glyph unicode="&#xe907;" glyph-name="pictos_site_OIP_facebook" d="M358.957-153.305h219.464v528h147.84l19.283 186.406h-166.818v109.579c-0.395 2.23-0.618 4.796-0.618 7.414 0 24.68 20.008 44.688 44.688 44.688 0.864 0 1.722-0.024 2.574-0.073l118.032 0.005v179.979h-162.533c-180.287 0-221.301-134.984-221.301-221.608v-120.598h-104.682v-186.406h104.071z" />
<glyph unicode="&#xe908;" glyph-name="pictos_site_OIP_fermer" d="M1010.634-116.211l-435.076 434.805 429.076 428.803-80.196 80.196-428.803-428.803-423.893 423.893-80.469-80.196 424.167-423.893-428.53-428.53 79.923-80.196 428.53 428.53 435.076-434.805 80.196 80.196z" />
<glyph unicode="&#xe909;" glyph-name="pictos_site_OIP_feuilleter" d="M992.416 612.768v146.416h-32.935c-11.9 0-272.903-9.412-375.867-125.38-100.748 117.631-356.216 125.103-368.116 125.38h-25.74v-118.74h-166.068v-719.625h42.348l-4.984-6.088 1069.752-8.027v706.064zM937.060 705.211v-614.728c-83.032 6.644-221.423 9.412-332.136-86.356v579.576c55.355 84.415 221.423 114.588 332.136 121.508zM245.112 705.211c83.032-6.363 262.664-36.812 311.652-127.040h-7.195v-567.396c-83.032 92.444-249.1 86.907-304.455 79.435zM189.757 585.092v-555.496l27.676 5.812c2.215 0 222.808 40.132 317.464-75.56l-455.856 0.832v624.416zM1075.452-41.26h-445.060c110.712 110.712 319.68 76.115 321.895 75.836l40.132-5.535v528.372h83.032z" />
<glyph unicode="&#xe90a;" glyph-name="pictos_site_OIP_fleche_bas" d="M1024.084 426.5l-478.638-440.894c-6.135-5.853-14.461-9.454-23.631-9.454s-17.496 3.602-23.644 9.467l-477.674 440.881c-6.256 5.215-10.207 13.010-10.207 21.728s3.951 16.513 10.161 21.691l51.429 47.298c6.196 5.858 14.567 9.473 23.78 9.516 9.2-0.236 17.515-3.806 23.828-9.544l402.166-371.401 403.782 371.745c6.135 5.853 14.461 9.454 23.631 9.454s17.496-3.602 23.644-9.467l51.372-47.248c6.256-5.215 10.207-13.010 10.207-21.728s-3.951-16.513-10.161-21.691z" />
<glyph unicode="&#xe90b;" glyph-name="pictos_site_OIP_fleche_haut" d="M21.281 77.337l478.216 440.212c6.126 5.843 14.439 9.44 23.595 9.44s17.469-3.596 23.608-9.453l478.201-440.199c6.246-5.207 10.191-12.99 10.191-21.694s-3.945-16.488-10.145-21.657l-53.567-47.542c-6.187-5.849-14.545-9.458-23.743-9.501-9.186 0.236-17.488 3.8-23.791 9.529l-402.177 371.46-403.158-371.488c-6.126-5.843-14.439-9.44-23.595-9.44s-17.469 3.596-23.608 9.453l-50.025 47.492c-6.246 5.207-10.191 12.99-10.191 21.694s3.945 16.488 10.145 21.657z" />
<glyph unicode="&#xe90c;" glyph-name="pictos_site_OIP_fleche1_drt" d="M1011.855 250.618l-28.705 28.705-0.277-0.277-134.969 134.969-28.705-28.705 110.956-110.956h-942.301v-40.574h949.753l-118.409-118.409 28.705-28.705 134.969 134.969 0.277-0.277 28.705 28.705-0.277 0.277 0.277 0.277z" />
<glyph unicode="&#xe90d;" glyph-name="pictos_site_OIP_fleche1_gch" d="M3.855 250.065l28.705-28.705 0.277 0.277 134.969-134.969 28.705 28.705-110.956 110.956h942.301v40.574h-949.477l118.132 118.409-28.705 28.705-134.969-134.969-0.277 0.277-28.705-28.705 0.551-0.277-0.551-0.277z" />
<glyph unicode="&#xe90e;" glyph-name="pictos_site_OIP_fleche2_drt" d="M1020.992 254.233l-343.361 343.361-46.836-46.836 265.809-266.112h-899.611v-66.299h899.611l-265.809-265.809 46.836-46.836 343.361 343.361-2.432 2.432 2.432 2.737z" />
<glyph unicode="&#xe90f;" glyph-name="pictos_site_OIP_fleche2_gch" d="M-3.008 249.062l343.361-343.361 46.836 46.836-265.809 265.809h899.611v66.299h-899.611l265.809 266.112-46.836 46.836-343.361-343.361 2.432-2.737-2.432-2.432z" />
<glyph unicode="&#xe910;" glyph-name="pictos_site_OIP_fleche3_drt" d="M338.765 748.588l440.212-478.216c5.843-6.126 9.44-14.439 9.44-23.595s-3.596-17.469-9.453-23.608l-440.199-478.201c-5.207-6.246-12.99-10.191-21.694-10.191s-16.488 3.945-21.657 10.145l-47.225 51.35c-5.849 6.187-9.458 14.545-9.501 23.743 0.236 9.186 3.8 17.488 9.529 23.791l371.144 403.127-371.17 403.158c-5.843 6.126-9.44 14.439-9.44 23.595s3.596 17.469 9.453 23.608l47.175 51.292c5.207 6.246 12.99 10.191 21.694 10.191s16.488-3.945 21.657-10.145z" />
<glyph unicode="&#xe911;" glyph-name="pictos_site_OIP_fleche3_gch" d="M688.401-255.031l-440.212 478.216c-5.843 6.126-9.44 14.439-9.44 23.595s3.596 17.469 9.453 23.608l440.199 478.201c5.207 6.246 12.99 10.191 21.694 10.191s16.488-3.945 21.657-10.145l47.225-51.35c5.849-6.187 9.458-14.545 9.501-23.743-0.236-9.186-3.8-17.488-9.529-23.791l-371.144-402.811 371.17-403.474c5.843-6.126 9.44-14.439 9.44-23.595s-3.596-17.469-9.453-23.608l-47.175-51.292c-5.207-6.246-12.99-10.191-21.694-10.191s-16.488 3.945-21.657 10.145z" />
<glyph unicode="&#xe912;" glyph-name="pictos_site_OIP_logo" horiz-adv-x="1168" d="M1312.523 300.664c-4.843 23.568-25.415 41.032-50.069 41.032-3.055 0-6.038-0.272-8.941-0.785-44.85-7.947-90.705-14.546-136.906-21.145-4.164 81.629-26.048 190.701-12.505 269.56 4.488 4.301 7.279 10.334 7.291 17.013v2.783c0 7.637-14.247 11.467-19.104 12.505h-4.511c-22.575 4.164-74.683-5.214-81.282-32.647-19.796-78.848 7.994-193.136 9.725-275.109v-9.032l-111.507-13.196q-1.742 173.685 10.070 347.372c0 19.104-98.31 5.906-100.731-27.098q-11.12-165.344-10.070-330.69l-113.236-12.505-20.499 444.63c0 19.796-102.128 2.78-100.731-27.098l20.846-429.345c-47.585-6.252-94.825-13.196-142.423-20.846 5.214 163.615 4.164 326.871-4.511 490.832 0 26.395-108.727 6.944-106.639-28.483 8.341-160.488 9.725-320.965 4.868-481.095-114.89-22.045-212.638-47.99-307.675-79.854-3.876-2.152-18.344-21.203-18.344-43.639 0-28.206 22.865-51.083 51.083-51.083 5.782 0 11.328 0.96 16.518 2.728 67.412 23.257 152.963 46.303 240.407 64.164 11.771-47.245 8.991-96.92 5.518-146.593-2.78-37.861 95.875-9.725 105.946 15.978l9.032 23.268c2.088 5.561 0 9.379-6.944 11.813q4.164 58.707 6.944 117.413c50.366 8.687 100.731 15.978 151.11 22.922l13.89-285.192c0-19.796 102.128-2.78 100.731 27.098l-13.196 270.945 107.33 12.505c-2.088-100.386-12.505-234.122 27.445-310.548 13.196-25.357 73.3 0 89.276 9.725l6.252 4.511c2.78 2.088 14.593 11.12 11.12 17.016l-2.78 5.214c-2.536 3.93-6.419 6.806-10.985 7.961-27.568 71.58-22.354 187.954-20.278 277.924l113.583 13.543c0-74.683 4.164-149.022 11.467-223.36 2.78-29.878 104.204-9.032 100.731 27.098-6.599 69.469-9.379 138.951-11.12 208.42 34.735 4.868 72.25 10.417 108.38 15.978 2.345-0.394 5.056-0.62 7.822-0.62s5.465 0.226 8.108 0.663l29.938 6.557c23.423 4.954 40.75 25.461 40.75 50.012 0 3.816-0.415 7.543-1.209 11.122z" />
<glyph unicode="&#xe913;" glyph-name="pictos_site_OIP_loupe" d="M1032.435-179.18l-309.33 312.327c57.972 69.175 93.182 159.138 93.182 257.326 0 221.962-179.936 401.898-401.898 401.898s-401.898-179.936-401.898-401.898c0-221.962 179.936-401.898 401.898-401.898 101.316 0 193.875 37.491 264.562 99.353l308.532-311.063c4.546-2.48 9.958-3.939 15.71-3.939 18.39 0 33.298 14.908 33.298 33.298 0 5.839-1.502 11.326-4.142 16.098zM418.102 53.901c-0.89-0.008-1.943-0.014-2.997-0.014-185.551 0-335.969 150.419-335.969 335.969s150.419 335.969 335.969 335.969c185.545 0 335.961-150.411 335.969-335.954 0.002-0.498 0.004-1.085 0.004-1.672 0-184.481-148.985-334.167-333.201-335.296z" />
<glyph unicode="&#xe914;" glyph-name="pictos_site_OIP_menu" d="M4.26-68.279h1024v112.545h-1024zM4.26 213.34h1024v113.061h-1024zM4.26 608.021v-112.545h1024v112.545z" />
<glyph unicode="&#xe915;" glyph-name="pictos_site_OIP_plus" d="M1000.732 364.003h-476.353v476.583c0 11.774-9.545 21.319-21.319 21.319s-21.319-9.545-21.319-21.319v-476.583h-462.371c-11.774 0-21.319-9.545-21.319-21.319s9.545-21.319 21.319-21.319h462.371v-462.141c0-11.774 9.545-21.319 21.319-21.319s21.319 9.545 21.319 21.319v462.141h476.353c11.774 0 21.319 9.545 21.319 21.319s-9.545 21.319-21.319 21.319z" />
<glyph unicode="&#xe916;" glyph-name="pictos_site_OIP_pointeur" d="M504.211 796.3c-207.707 0-375.432-161.493-375.432-360.632 0-0.094 0-0.207 0-0.319 0-68.924 20.028-133.171 54.581-187.238l321.111-475.81 321.687 477.468c33.716 52.667 53.744 116.915 53.744 185.839 0 0.021 0 0.043 0 0.064-0.26 199.136-168.243 360.629-375.692 360.629zM504.211 283.522c-82.164 3.438-147.473 70.88-147.473 153.578 0 84.888 68.816 153.704 153.704 153.704 84.844 0 153.631-68.743 153.704-153.57-1.141-85.168-70.444-153.767-155.767-153.767-1.465 0-2.925 0.020-4.381 0.061z" />
<glyph unicode="&#xe917;" glyph-name="pictos_site_OIP_telephone" d="M745.732 155.066c-68.185-68.185-68.185-136.369-136.369-136.369s-136.369 68.185-204.862 136.369-136.369 136.369-136.369 204.862 68.185 68.185 136.369 136.369-136.369 273.047-204.862 273.047-204.862-204.862-204.862-204.862c0-136.369 140.363-413.102 273.047-546.091s409.416-273.047 546.091-273.047c0 0 204.862 136.369 204.862 204.862s-204.862 273.047-273.047 204.862z" />
<glyph unicode="&#xe918;" glyph-name="pictos_site_OIP_twitter" d="M993.977 685.222c-38.285-23.162-82.847-40.827-130.323-50.468-40.97 39.942-95.005 65.081-154.912 65.081-115.484 0-209.148-93.421-209.541-208.812 0-0.166 0-0.318 0-0.471 0-16.718 1.927-32.984 5.572-48.591-174.721 10.406-328.166 93.278-431.049 219.104-18.342-28.893-28.675-64.885-28.675-103.293 0-72.136 36.452-135.76 91.941-173.454-34.266 0.67-66.795 10.228-95.21 26.232l1.048-3.047c0-0.059 0-0.127 0-0.197 0-100.653 70.967-184.731 165.594-204.927-15.012-4.841-33.829-7.483-53.261-7.483-0.359 0-0.719 0.002-1.078 0.003-0.059 0-0.192 0-0.328 0-13.837 0-27.367 1.317-40.47 3.832 28.839-83.757 105.254-143.389 195.889-145.47-70.442-55.865-160.845-89.611-259.132-89.611-0.189 0-0.377 0-0.566 0-0.323-0.002-0.737-0.002-1.153-0.002-17.135 0-34.034 1.011-50.639 2.979 92.953-59.862 204.399-95.365 324.137-95.365 0.336 0 0.672 0 1.008 0.002 383.971 0 595.462 318.906 595.462 595.514 0 9.183 0 18.087 0 27.828 41.117 29.997 75.75 65.958 103.394 107.013-34.274-14.758-75.153-26.609-118.050-31.95 41.385 25.935 74.049 66.178 89.924 114.074z" />
<glyph unicode="&#xe919;" d="M879.867 646.18s0 0 0 1.24c-0.115 1.957-0.484 3.79-1.077 5.518 0.059 0.132 0.069 0.458 0.069 0.784s-0.010 0.652-0.029 0.974c-1.067 2.273-2.454 4.256-4.132 5.95l-185.999 185.999c-1.692 1.677-3.676 3.066-5.865 4.079l-1.987 0.053c-1.583 0.548-3.416 0.917-5.317 1.030l-518.995 0.002c-11.414 0-20.668-9.253-20.668-20.668v-950.667c0-11.414 9.253-20.668 20.668-20.668h702.667c11.414 0 20.668 9.253 20.668 20.668zM809.392 666.847h-115.528v115.32zM838.532-97.818h-661.33v909.33h475.332v-165.332c0-11.414 9.253-20.668 20.668-20.668h165.332z" />
<glyph unicode="&#xe91a;" d="M96.188 500.892h823.15c22.828 0 41.332-18.506 41.332-41.332v-371.38c0-22.828-18.506-41.332-41.332-41.332h-823.15c-22.828 0-41.332 18.506-41.332 41.332v371.38c0 22.828 18.506 41.332 41.332 41.332z" />
<glyph unicode="&#xe91b;" d="M380.56 329.36c0.136-1.942 0.214-4.208 0.214-6.491 0-24.544-8.913-47.008-23.681-64.326-15.68-15.202-37.26-24.659-61.050-24.659-2.112 0-4.205 0.075-6.279 0.221l-13.155-0.016v-104.78h-53.94v289.332h73.368q84.528-0.208 84.528-89.28zM277.228 280.792h10.332c0.896-0.077 1.935-0.12 2.986-0.12 10.386 0 19.786 4.234 26.565 11.069 5.749 8.341 9.181 18.663 9.181 29.786 0 1.956-0.106 3.889-0.314 5.793 0.118 0.975 0.175 2.386 0.175 3.81 0 11.058-3.379 21.324-9.159 29.827-5.998 6.618-14.831 10.88-24.656 10.88-0.955 0-1.898-0.039-2.832-0.118l-12.898 0.009z" />
<glyph unicode="&#xe91c;" d="M610.992 276.452c0.246-3.494 0.387-7.572 0.387-11.683 0-36.455-11.026-70.337-29.928-98.487-18.004-22.584-46.205-37.345-77.854-37.345-1.987 0-3.961 0.058-5.921 0.173l-70.616-0.012v289.332h77.292c1.244 0.059 2.701 0.093 4.167 0.093 30.332 0 57.262-14.551 74.195-37.055 17.982-26.767 28.599-59.426 28.599-94.564 0-3.678-0.116-7.329-0.344-10.948zM555.812 274.8q0 96.928-53.32 96.928h-20.668v-195.712h17.36c0.726-0.039 1.577-0.063 2.433-0.063 17.72 0 33.138 9.869 41.052 24.411 8.623 18.708 13.579 40.309 13.579 63.065 0 4.075-0.158 8.113-0.47 12.11z" />
<glyph unicode="&#xe91d;" d="M716.6 129.1h-53.32v289.332h129.58v-46.5h-76.26v-80.392h71.092v-46.5h-71.092z" />
<glyph unicode="&#xe91e;" glyph-name="pictos_site_OIP_instagram" d="M874.179 812.843h-618.235c-107.541 0-194.72-87.179-194.72-194.72v-618.561c0-107.541 87.179-194.72 194.72-194.72h618.235c107.541 0 194.72 87.179 194.72 194.72v618.561c0 107.541-87.179 194.72-194.72 194.72zM929.999 696.659h22.393v-170.705h-170.055v171.028zM421.455 412.369c32.494 45.595 85.184 74.973 144.738 74.973 97.862 0 177.195-79.333 177.195-177.195s-79.333-177.195-177.195-177.195c-97.404 0-176.451 78.592-177.189 175.82-0.004 0.428-0.004 0.85-0.004 1.272 0 38.343 12.157 73.847 32.825 102.869zM970.89-0.438c0-53.771-43.589-97.36-97.36-97.36h-617.587c-53.771 0-97.36 43.589-97.36 97.36v412.806h150.583c-12.829-30.693-20.284-66.355-20.284-103.759 0-152.171 123.358-275.529 275.529-275.529s275.529 123.358 275.529 275.529c0 37.403-7.453 73.065-20.955 105.584l151.256-1.825z" />
</font>
</defs>
</svg>
